You are not logged in.

#1 2014-05-04 08:01:25

hariskar
Member
From: Greece/Kavala
Registered: 2012-10-16
Posts: 181
Website

How can a video be scaled with Cinelerra?

I am trying to apply the effect but Cinellera closes and the output is a 8.5KB file that does not open. Thank you for help.

Here is the terminal output:

/home/hk/00022.avi: Value too large for defined data type
signal_entry: got SIGSEGV my pid=28798 execution table size=16:
    mwindow.C: load_filenames: 1243
    mwindow.C: load_filenames: 1245
    filemov.C: filemov.C: 121
    filemov.C: filemov.C: 123
    filemov.C: filemov.C: 125
    mwindow.C: load_filenames: 1248
    mwindow.C: load_filenames: 1252
    mwindow.C: load_filenames: 1254
    vrender.C: run: 435
    vrender.C: process_buffer: 124
    vrender.C: process_buffer: 134
    bchash.C: copy_from: 276
    bchash.C: copy_from: 279
    bchash.C: copy_from: 288
    vrender.C: run: 437
    vrender.C: run: 576
signal_entry: lock table size=14
    0xa6e96c0 CWindowTool::input_lock CWindowTool::run 
    0xa06faf8 BC_Synchronous::next_command BC_Synchronous::run 
    0xa7c9eb8 TransportQue::output_lock PlaybackEngine::run 
    0xa7ca458 MainIndexes::input_lock MainIndexes::run 1 
    0xa70d9f8 TransportQue::output_lock PlaybackEngine::run 
    0xa8404f8 ResourceThread::draw_lock ResourceThread::run 
    0xa86fa10 BC_Repeater::pause_lock BC_Repeater::run 
    0xa6455e0 BC_WindowBase::event_condition BC_WindowBase::get_event 
    0xa70f050 BC_WindowBase::event_condition BC_WindowBase::get_event 
    0xa871038 BC_WindowBase::event_condition BC_WindowBase::get_event 
    0xa73b9b0 BC_WindowBase::event_condition BC_WindowBase::get_event 
    0xa5161f8 BC_WindowBase::event_condition BC_WindowBase::get_event 
    0xac033800 FileThread::output_lock FileThread::run 1 
    0xa7cc238 BC_WindowBase::event_condition BC_WindowBase::get_event 
BC_Signals::dump_buffers: buffer table size=0
BC_Signals::delete_temps: deleting 0 temp files
SigHandler::signal_handler total files=1
Closing cvx.avi001
x264 [info]: using cpu capabilities: MMX2 SSE2Fast SSSE3 SSE4.1 Cache64
x264 [info]: profile High, level 5.0
Aborted (core dumped)

@admin: Please delete double post https://bbs.archlinux.org/viewtopic.php?id=181072 from Newbie Corner, thank you

Offline

#2 2014-05-04 09:12:40

HiImTye
Member
From: Nanaimo, BC, Canada
Registered: 2012-05-09
Posts: 403

Re: How can a video be scaled with Cinelerra?

http://www.gnu.org/software/coreutils/faq/coreutils-faq.html#Value-too-large-for-defined-data-type wrote:

It means that your version of the utilities were not compiled with large file support enabled.

if it's a regular video file, use ffmpeg to scale it

ffmpeg -i input.avi -vf scale="width:height" output.avi

Offline

#3 2014-05-04 13:06:03

hariskar
Member
From: Greece/Kavala
Registered: 2012-10-16
Posts: 181
Website

Re: How can a video be scaled with Cinelerra?

Thank you!

I scaled is succesfully but when I import it to Cinelerra and right click info it saws only Audio info. There is no Video. When I play it in vlc it plays normally.

The command was:

ffmpeg -i 00022.avi -vf scale=800:450 -qscale 0 output3.avi

Last edited by hariskar (2014-05-04 13:26:50)

Offline

#4 2014-05-05 03:36:00

HiImTye
Member
From: Nanaimo, BC, Canada
Registered: 2012-05-09
Posts: 403

Re: How can a video be scaled with Cinelerra?

what does ffmpeg say when you only specify the video file?

ffmpeg -i output3.avi

Offline

#5 2014-05-05 03:50:11

hariskar
Member
From: Greece/Kavala
Registered: 2012-10-16
Posts: 181
Website

Re: How can a video be scaled with Cinelerra?

$ ffmpeg -i output4.avi
ffmpeg version 2.2.1 Copyright (c) 2000-2014 the FFmpeg developers
  built on Apr 10 2014 16:12:22 with gcc 4.8.2 (GCC) 20140206 (prerelease)
  configuration: --prefix=/usr --disable-debug --disable-static --enable-avresample --enable-dxva2 --enable-fontconfig --enable-gnutls --enable-gpl --enable-libass --enable-libbluray --enable-libfreetype --enable-libgsm --enable-libmodplug --enable-libmp3lame --enable-libopencore_amrnb --enable-libopencore_amrwb --enable-libopenjpeg --enable-libopus --enable-libpulse --enable-librtmp --enable-libschroedinger --enable-libspeex --enable-libtheora --enable-libv4l2 --enable-libvorbis --enable-libvpx --enable-libx264 --enable-libx265 --enable-libxvid --enable-pic --enable-postproc --enable-runtime-cpudetect --enable-shared --enable-swresample --enable-vdpau --enable-version3 --enable-x11grab
  libavutil      52. 66.100 / 52. 66.100
  libavcodec     55. 52.102 / 55. 52.102
  libavformat    55. 33.100 / 55. 33.100
  libavdevice    55. 10.100 / 55. 10.100
  libavfilter     4.  2.100 /  4.  2.100
  libavresample   1.  2.  0 /  1.  2.  0
  libswscale      2.  5.102 /  2.  5.102
  libswresample   0. 18.100 /  0. 18.100
  libpostproc    52.  3.100 / 52.  3.100
Input #0, avi, from 'output4.avi':
  Metadata:
    encoder         : Lavf55.33.100
  Duration: 00:03:22.34, start: 0.000000, bitrate: 433 kb/s
    Stream #0:0: Video: mpeg4 (Simple Profile) (FMP4 / 0x34504D46), yuv420p, 800x450 [SAR 1:1 DAR 16:9], 25 tbr, 25 tbn, 25 tbc
    Stream #0:1: Audio: mp3 (U[0][0][0] / 0x0055), 48000 Hz, stereo, s16p, 128 kb/s
At least one output file must be specified

Offline

#6 2014-05-05 18:20:28

HiImTye
Member
From: Nanaimo, BC, Canada
Registered: 2012-05-09
Posts: 403

Re: How can a video be scaled with Cinelerra?

hariskar wrote:
    Stream #0:0: Video: mpeg4 (Simple Profile) (FMP4 / 0x34504D46), yuv420p, 800x450 [SAR 1:1 DAR 16:9], 25 tbr, 25 tbn, 25 tbc

this could be the problem, re-encode it as a proper mp4 or a proper avi using either

ffmpeg -i output4.avi -vcodec libxvid out.avi
## OR
ffmpeg -i output4.avi -vcodec mpeg4 -acodec aac -strict -2 out.mp4

and see if it helps

Last edited by HiImTye (2014-05-05 18:21:35)

Offline

#7 2014-05-26 16:01:27

hariskar
Member
From: Greece/Kavala
Registered: 2012-10-16
Posts: 181
Website

Re: How can a video be scaled with Cinelerra?

Thank you, I resize it with Winff and then import it to Cinellera.

Offline

Board footer

Powered by FluxBB